<?xml version="1.0" standalone="no"?>
<!DOCTYPE svg PUBLIC "-//W3C//DTD SVG 1.1//EN" "http://www.w3.org/Graphics/SVG/1.1/DTD/svg11.dtd" >
<svg xmlns="http://www.w3.org/2000/svg">
<metadata></metadata>
<defs>
<font id="oceaniabold" horiz-adv-x="500" >
<font-face units-per-em="1000" ascent="760" descent="-240" />
<missing-glyph horiz-adv-x="240" />
<glyph unicode="&#xfb01;" horiz-adv-x="724" d="M644 539l-1 -1v-538h-147v435h-257l1 -435h-147l1 435h-74v104h74v11q0 93 50 148q45 50 122 58q22 3 43 3q22 0 42 -3q33 -5 58 -15l-2 -116q-32 25 -72 25q-13 0 -27 -3q-33 -6 -49 -25q-20 -23 -20 -69v-14h405zM567 610q-80 0 -80 79t80 79h6q78 -2 78 -79t-77 -79 h-7z" />
<glyph unicode="&#xfb02;" horiz-adv-x="739" d="M653 756v-756h-146v626q-19 14 -78 20q-30 4 -52 4q-19 0 -32 -3q-35 -6 -55 -25q-26 -24 -26 -69v-14h127l-1 -104h-126l1 -435h-147l1 435h-74v104h74v11q0 91 56 147q49 49 128 59q25 3 51 3q22 0 46 -2q59 -6 111 -25z" />
<glyph horiz-adv-x="1000" />
<glyph horiz-adv-x="1000" />
<glyph unicode="&#xd;" horiz-adv-x="1000" />
<glyph unicode=" "  horiz-adv-x="240" />
<glyph unicode="&#x09;" horiz-adv-x="240" />
<glyph unicode="&#xa0;" horiz-adv-x="240" />
<glyph unicode="!" horiz-adv-x="305" d="M200 242h-96q-2 26 -4 69l-8 162v278h121v-278zM152 -7q-76 0 -76 73q0 72 76 72q77 0 77 -72q0 -73 -77 -73z" />
<glyph unicode="&#x22;" horiz-adv-x="423" d="M168 477h-109l-10 276h129zM364 477h-109l-10 276h129z" />
<glyph unicode="#" horiz-adv-x="586" d="M533 424h-92l-31 -177h91l-21 -118h-92l-22 -129h-78l23 129h-106l-23 -129h-77l22 129h-95l21 118h96l31 177h-95l21 118h96l21 119h77l-21 -119h106l22 119h77l-22 -119h92zM258 424l-32 -177h107l31 177h-106z" />
<glyph unicode="$" horiz-adv-x="604" d="M359 410q113 -21 164 -90q36 -48 36 -113q0 -21 -4 -45q-15 -94 -76 -135q-55 -37 -158 -37q-43 0 -97 14l-31 -95h-50l36 107q-53 13 -92 13h-5l5 43q5 49 9 76q7 1 14 1q21 0 46 -5q22 -5 60 -16l59 176q-114 20 -164 82q-38 48 -38 120q0 30 6 63q16 81 82 120 q51 29 118 29q14 0 30 -1q42 -4 97 -16l33 99h49l-35 -107q22 -3 41 -3q15 0 28 2l-14 -121q-13 -2 -26 -2q-10 0 -21 1q-17 3 -45 11zM205 533q-2 -10 -2 -19q0 -74 109 -96l59 177l-30 7q-25 5 -45 5q-78 0 -91 -74zM424 175q2 12 2 24q0 75 -105 97l-60 -182l23 -6 q12 -3 23 -4q16 -2 29 -2q74 0 88 73z" />
<glyph unicode="%" horiz-adv-x="875" d="M344 0h-78l280 698h78zM354 466q0 -75 -36 -128q-42 -59 -112 -59h-15q-70 0 -111 60q-36 52 -36 127v30q0 76 36 128q41 59 111 59h16q70 0 111 -59q36 -53 36 -128v-30zM131 465q1 -42 14 -69q17 -34 49 -34h10q32 0 49 34q13 27 14 69v32q-1 42 -14 69q-17 33 -49 35 h-10q-32 -2 -49 -35q-13 -27 -14 -69v-32zM833 179q0 -75 -36 -128q-42 -59 -112 -59h-15q-70 0 -111 60q-36 52 -36 127v30q0 76 36 128q41 59 111 59h16q70 0 111 -59q36 -53 36 -128v-30zM610 178q1 -42 14 -69q17 -34 49 -34h10q32 0 49 34q13 27 14 69v32q-1 42 -14 69 q-17 33 -49 35h-10q-32 -2 -49 -35q-13 -27 -14 -69v-32z" />
<glyph unicode="&#x26;" horiz-adv-x="684" d="M105 60q-56 61 -56 139q0 28 8 59q27 113 134 168q-34 44 -50 77q-21 41 -21 80q0 78 57 127q54 47 131 47q76 0 129 -46q56 -48 56 -125q0 -61 -39 -112q-33 -42 -94 -78q17 -20 41 -50q17 -20 48 -59l14 36q9 22 17 37q20 41 51 66q42 34 93 34l22 -1q18 -3 41 -8v-112 q-3 0 -9 2l-22 4q-7 1 -12 1h-8q-25 0 -41 -11l-12 -13q-7 -11 -14 -27q-7 -15 -18 -47q-10 -32 -18 -49l125 -145q26 -31 47 -54h-153q-15 17 -39 47l-39 47q-90 -104 -206 -104q-102 0 -163 70zM262 339q-60 -23 -80 -83q-7 -21 -7 -40q0 -38 28 -69q30 -34 71 -34 q13 0 28 4q54 13 94 65l-34 40q-9 9 -19 22l-20 23q-24 30 -35 42zM306 651q-26 0 -44 -21q-20 -21 -20 -48q0 -48 45 -98l33 19q16 11 26 22q25 25 25 61q0 26 -18 46q-18 19 -43 19h-4z" />
<glyph unicode="'" horiz-adv-x="227" d="M168 477h-109l-10 276h129z" />
<glyph unicode="(" horiz-adv-x="359" d="M211 -139q-71 95 -109 213q-37 114 -37 231q0 116 36 230q38 120 110 218h113q-69 -101 -105 -220q-33 -112 -33 -228q0 -114 33 -224q36 -117 105 -220h-113z" />
<glyph unicode=")" horiz-adv-x="359" d="M148 753q71 -95 109 -213q37 -114 37 -231q0 -116 -36 -230q-38 -120 -110 -218h-113q69 101 105 220q33 112 33 228q0 114 -33 224q-36 117 -105 220h113z" />
<glyph unicode="*" horiz-adv-x="440" d="M424 569l-132 -35l88 -103l-87 -62l-73 113l-73 -113l-88 62l89 103l-133 35l33 100l126 -50l-8 134h107l-7 -134l125 50z" />
<glyph unicode="+" horiz-adv-x="530" d="M319 212v-200h-108v200h-166v108h166v199h108v-199h165v-108h-165z" />
<glyph unicode="," horiz-adv-x="285" d="M86 -187l-65 73q61 39 78 61q15 18 15 48v18h-9q-44 0 -44 54q0 72 78 72q88 0 88 -105q0 -136 -141 -221z" />
<glyph unicode="-" horiz-adv-x="250" d="M23 215v101h204v-101h-204z" />
<glyph unicode="." horiz-adv-x="285" d="M142 -8q-77 0 -77 74q0 73 77 73q78 0 78 -73q0 -74 -78 -74z" />
<glyph unicode="/" horiz-adv-x="356" d="M87 -139h-106l312 872h107z" />
<glyph unicode="0" horiz-adv-x="666" d="M145 80q-81 93 -81 226v19q0 145 81 234q76 83 191 83q114 0 188 -83q77 -88 77 -235v-15q0 -140 -75 -230t-190 -90q-111 0 -191 91zM453 324q0 30 -5 59q-6 35 -17 61q-31 66 -94 66q-66 0 -100 -66q-13 -27 -20 -61q-6 -29 -6 -59v-15q0 -72 26 -123q33 -64 95 -64 q67 0 98 63q12 26 18 61q5 29 5 63v15z" />
<glyph unicode="1" horiz-adv-x="464" d="M366 604v-604h-148v482l-115 -110l-76 97l194 174z" />
<glyph unicode="2" horiz-adv-x="589" d="M373 218q-38 -38 -92 -89h243v-129h-430l-37 119l76 70l177 167q19 17 33 31q39 37 39 69q0 23 -20 44q-23 24 -50 24q-29 0 -63 -26q-24 -18 -44 -36q-27 -24 -53 -51l-94 98q52 56 101 91q54 38 99 48q32 7 61 7q80 0 141 -52q68 -58 68 -145q-1 -84 -62 -147 q-62 -63 -93 -93z" />
<glyph unicode="3" horiz-adv-x="606" d="M537 104q0 -102 -76 -161q-69 -54 -171 -54q-77 0 -146 33q-71 33 -108 90l95 113q54 -102 160 -102q89 0 99 86l1 12q0 93 -104 93h-91v118h90q88 0 92 89v4q0 90 -89 90q-43 0 -83 -27q-17 -11 -36 -28q-13 -12 -33 -33l-90 118q53 46 107 72q67 31 135 31 q96 0 165 -57q72 -60 72 -149q0 -111 -92 -163q103 -60 103 -175z" />
<glyph unicode="4" horiz-adv-x="648" d="M608 15h-89v-119h-143v119h-276l-62 143l200 366q6 9 20 27q13 16 31 36q32 36 56 60h168q-15 -16 -52 -61l-26 -31l-3 -5q-17 -21 -26 -31q-30 -50 -60 -105l-101 -186q-26 -50 -43 -80h174v209h143v-209h89v-133z" />
<glyph unicode="5" horiz-adv-x="645" d="M207 110q31 -84 119 -84q51 0 82 38q29 36 29 90v3q-2 122 -104 122q-36 0 -64 -21q-25 -17 -43 -49l-134 32v404h456l-36 -131h-273v-184q38 42 68 59q36 19 85 19q91 0 146 -76q52 -73 52 -184q0 -107 -73 -178q-74 -72 -187 -72q-91 0 -155 39q-57 34 -98 103z" />
<glyph unicode="6" horiz-adv-x="649" d="M59 447q0 202 133 281q58 34 149 34q115 0 179 -44l-49 -126q-33 22 -56 32q-32 14 -62 14q-62 -2 -102 -35q-42 -37 -42 -96v-65q14 17 25 27q15 15 32 26q41 25 99 25q110 0 170 -79q53 -72 53 -185q0 -117 -68 -190q-71 -77 -195 -77q-127 0 -198 79q-68 76 -68 203 v176zM325 114q117 0 117 140q0 142 -117 142q-118 0 -118 -142q0 -140 118 -140z" />
<glyph unicode="7" horiz-adv-x="610" d="M547 643l42 -106l-309 -636h-167l311 609h-204q-17 0 -39 -48l-23 -50l-129 55l65 121q28 55 113 55h340z" />
<glyph unicode="8" horiz-adv-x="682" d="M562 365q18 -17 31 -35q29 -44 29 -107q0 -103 -87 -169q-80 -61 -189 -61q-111 0 -191 60q-87 66 -87 171q0 64 24 104q18 30 65 66q-68 62 -68 157q0 90 73 149q73 58 184 58t182 -59q70 -59 70 -148q0 -52 -19 -91q-17 -34 -52 -66q22 -16 35 -29zM334 445h20 q98 0 98 90q0 95 -108 95q-111 0 -111 -94q0 -91 101 -91zM357 327h-27q-110 0 -110 -101q0 -100 124 -100q125 0 125 99q0 102 -112 102z" />
<glyph unicode="9" horiz-adv-x="647" d="M588 213q0 -202 -133 -281q-58 -34 -149 -34q-115 0 -179 44l49 126q33 -22 56 -32q32 -14 62 -14q62 2 102 36q42 36 42 95v65q-14 -17 -25 -27q-15 -15 -31 -25q-40 -26 -94 -26h-6q-110 0 -170 80q-53 71 -53 184q0 117 68 190q71 77 195 77q127 0 198 -79 q68 -76 68 -203v-176zM322 546q-117 0 -117 -140q0 -142 117 -142q118 0 118 142q0 140 -118 140z" />
<glyph unicode=":" horiz-adv-x="285" d="M142 382q-77 0 -77 74q0 73 77 73q78 0 78 -73q0 -74 -78 -74zM142 -8q-77 0 -77 74q0 73 77 73q78 0 78 -73q0 -74 -78 -74z" />
<glyph unicode=";" horiz-adv-x="285" d="M86 -187l-65 73q61 39 78 61q15 18 15 48v18h-9q-44 0 -44 54q0 72 78 72q88 0 88 -105q0 -136 -141 -221zM142 382q-77 0 -77 74q0 73 77 73q78 0 78 -73q0 -74 -78 -74z" />
<glyph unicode="&#x3c;" horiz-adv-x="530" d="M317 0l-238 266l238 265h133v-12l-228 -251l228 -256v-12h-133z" />
<glyph unicode="=" horiz-adv-x="530" d="M63 92v105h404v-105h-404zM63 338v106h404v-106h-404z" />
<glyph unicode="&#x3e;" horiz-adv-x="530" d="M213 531l237 -265l-237 -266h-134v12l228 252l-228 255v12h134z" />
<glyph unicode="?" horiz-adv-x="462" d="M394 494q-19 -28 -59 -59l-61 -46q-27 -26 -29 -53l-6 -94h-112l-2 123q0 38 25 70q18 24 55 51l30 21q17 12 26 20q27 22 29 41q1 2 1 5v5q0 66 -72 66q-68 0 -116 -74l-55 111q38 39 90 58q47 18 99 18q83 0 133 -47q51 -47 51 -124q0 -51 -27 -92zM182 -7 q-79 0 -79 75t80 75t80 -75t-81 -75z" />
<glyph unicode="@" horiz-adv-x="936" d="M861 251q-21 -55 -58 -96q-70 -74 -162 -74q-85 0 -113 54h-5q-80 -54 -130 -54q-126 0 -126 147q0 124 58 204q56 78 140 78q63 0 110 -31l5 24h104l-53 -299q-2 -12 -2 -19q0 -25 31 -25q51 0 88 54q45 63 45 176q0 270 -292 270q-162 0 -257 -107q-99 -111 -99 -307 q0 -310 280 -310q80 0 164 31l9 -85q-89 -29 -180 -29q-367 0 -367 393q0 235 128 369q122 128 322 128q177 0 277 -88q106 -92 106 -265q0 -77 -23 -139zM564 413q-39 21 -74 21q-46 0 -78 -57q-34 -58 -34 -142q0 -71 58 -71q33 0 89 32z" />
<glyph unicode="A" horiz-adv-x="683" d="M420 751l252 -751h-156l-21 68q-9 30 -18 57q-11 38 -24 77h-219l-68 -202h-156l255 751h155zM420 322l-71 240l-6 61l-6 -61l-73 -240h156z" />
<glyph unicode="B" horiz-adv-x="698" d="M95 0v751h280q112 0 179 -59q60 -53 60 -129q0 -69 -27 -115q-20 -36 -58 -62q45 -25 74 -63q38 -51 38 -117q0 -91 -61 -146q-65 -60 -181 -60h-304zM377 126q107 0 107 98q0 89 -107 89h-135v-187h135zM365 435q102 0 102 97q0 40 -30 66q-29 26 -73 26h-122v-189h123z " />
<glyph unicode="C" horiz-adv-x="638" d="M343 -9q-126 4 -207 100q-78 91 -78 222v107q0 134 77 230q80 101 208 106h15q147 0 240 -101l-104 -105l-27 27q-15 13 -29 21q-33 19 -82 19q-73 0 -114 -59q-37 -55 -37 -138v-94q0 -89 38 -141q41 -56 119 -56q40 0 79 23q28 17 65 53l104 -105q-50 -51 -112 -79 q-67 -31 -137 -31z" />
<glyph unicode="D" horiz-adv-x="738" d="M96 751h288q134 0 214 -99q75 -93 75 -240v-89q0 -135 -76 -226q-81 -97 -214 -97h-287v751zM244 133h136q72 0 109 58q32 50 32 132v89q-7 105 -34 151q-33 55 -108 55h-135v-485z" />
<glyph unicode="E" horiz-adv-x="614" d="M95 0v751h467v-133h-319v-176h285v-127h-285v-182h308l19 -133h-475z" />
<glyph unicode="F" horiz-adv-x="590" d="M96 751h453v-132h-305v-174h272v-128h-272v-317h-148v751z" />
<glyph unicode="G" horiz-adv-x="741" d="M149 81q-83 90 -83 221v142q1 141 95 238q93 96 225 96h2q68 0 131 -19q71 -23 117 -65l-91 -116q-30 31 -76 47q-40 14 -82 14q-70 0 -120 -52q-53 -56 -53 -143v-139q0 -91 46 -141q43 -47 116 -47q65 0 109 40q46 42 46 111v38h-150l-23 128h320v-146q0 -130 -78 -211 q-85 -88 -238 -88q-128 0 -213 92z" />
<glyph unicode="H" horiz-adv-x="769" d="M96 0v751h147v-322h290v322h147v-751h-147v301h-290v-301h-147z" />
<glyph unicode="I" horiz-adv-x="339" d="M97 0v751h148v-751h-148z" />
<glyph unicode="J" horiz-adv-x="349" d="M33 -46q17 -6 28 -6q47 0 47 77v726h147v-738q0 -81 -50 -134q-52 -54 -133 -54q-19 0 -46 5z" />
<glyph unicode="K" horiz-adv-x="724" d="M690 8q-31 -15 -65 -15q-18 0 -38 5q-55 14 -88 61q-43 61 -83 120q-18 26 -38 57q-16 23 -41 61l-49 -64l-43 -59v-174h-148v751h148v-370l67 87l210 283h172l-263 -338q42 -62 90 -131q40 -58 83 -117q22 -32 64 -32q10 0 21 2z" />
<glyph unicode="L" horiz-adv-x="596" d="M95 0v751h147v-620h335l-27 -131h-455z" />
<glyph unicode="M" horiz-adv-x="886" d="M809 0h-147v532l-8 -64l-138 -458h-140l-137 457l-9 65v-532h-148v751h204l155 -537l5 -65l3 65l158 537h202v-751z" />
<glyph unicode="N" horiz-adv-x="741" d="M670 751v-751h-134l-284 458l-9 49v-507h-148v751h136l283 -451l9 -47v498h147z" />
<glyph unicode="O" horiz-adv-x="752" d="M597 670q94 -91 94 -233v-125q0 -140 -94 -232q-91 -90 -223 -90t-222 90q-94 92 -94 232v125q0 142 94 233q90 89 222 89t223 -89zM541 442q0 84 -50 137q-48 50 -118 50t-118 -50q-50 -53 -50 -137v-134q0 -83 50 -136q48 -51 118 -51t118 51q50 53 50 136v134z" />
<glyph unicode="P" horiz-adv-x="680" d="M96 0v752h294q106 0 177 -74q69 -71 69 -173q0 -110 -68 -186q-70 -79 -178 -79h-146v-240h-148zM367 373q52 0 86 38q34 37 34 92q0 48 -33 84q-33 35 -80 35h-130v-249h123z" />
<glyph unicode="Q" horiz-adv-x="744" d="M691 310q0 -169 -127 -262q-10 -7 -24 -15q-17 -10 -32 -15q24 -11 50 -30l21 -16q12 -9 23 -15q11 -7 30 -8q21 0 35 10l2 -108q-26 -12 -56 -12q-13 0 -26 2q-37 6 -65 25q-21 14 -48 38l-43 37q-25 20 -47 31q-28 14 -60 20q-113 19 -188 106q-78 90 -78 212v125 q0 138 94 231q92 91 223 91t223 -92q93 -93 93 -230v-125zM205 296q0 -77 50 -128q49 -49 118 -49q70 0 119 49q50 51 50 128v154q0 79 -50 129q-49 48 -119 48t-118 -48q-50 -50 -50 -129v-154z" />
<glyph unicode="R" horiz-adv-x="701" d="M647 1q-31 -12 -60 -12q-70 0 -127 75q-14 18 -34 56l-5 8q-1 1 -2 4l-2 4q-3 4 -4 7q-2 5 -4 8l-18 31q-20 33 -39 49q-22 21 -47 21h-62v-252h-147v751h299q105 0 175 -75q67 -72 67 -175q0 -133 -115 -205l-7 -4q-4 -3 -7 -4q-9 -6 -18 -9q19 -14 37 -45q5 -8 15 -27 q9 -17 15 -26q17 -29 35 -40q15 -9 33 -9q10 0 22 3v-134zM243 383h128q54 0 87 37q30 33 30 81q0 47 -29 81q-32 36 -81 36h-135v-235z" />
<glyph unicode="S" horiz-adv-x="654" d="M127 220q43 -45 98 -72q59 -30 113 -30q47 0 76 14q34 18 42 58q2 8 2 16q0 61 -88 89l-45 14q-22 7 -40 14q-43 15 -92 36q-73 31 -103 108q-15 38 -15 76q0 41 17 82q29 71 103 106q59 28 134 28q12 0 24 -1q142 -8 247 -87l-72 -128q-78 87 -184 94h-12 q-93 0 -108 -72q-3 -13 -3 -24q0 -57 67 -80l111 -38q36 -13 63 -24q32 -14 53 -25q68 -36 90 -98q11 -29 11 -61q0 -33 -11 -69q-22 -72 -95 -114q-69 -39 -157 -39q-84 0 -159 25q-71 23 -118 62z" />
<glyph unicode="T" horiz-adv-x="610" d="M226 0v618h-196v133h549v-133h-206v-618h-147z" />
<glyph unicode="U" horiz-adv-x="757" d="M682 751v-449q0 -136 -86 -225q-86 -87 -216 -87t-215 87q-87 89 -87 225v449h148v-464q0 -71 43 -119q43 -49 110 -49t110 49q43 48 43 119v464h150z" />
<glyph unicode="V" horiz-adv-x="683" d="M659 751l-214 -751h-194l-230 751h154l167 -560l5 -62l5 62l153 560h154z" />
<glyph unicode="W" horiz-adv-x="996" d="M217 0l-199 751l3 1h150l131 -506l6 -82l5 63l109 513h153l119 -520l4 -56l4 75l124 513h152l-185 -752h-186l-101 451l-5 73l-5 -73l-93 -451h-186z" />
<glyph unicode="X" horiz-adv-x="695" d="M678 750q-39 -61 -112 -173l-125 -191l73 -112q46 -70 63 -93q44 -60 86 -60l13 1v-122q-30 -11 -62 -11q-80 0 -134 84l-119 184q-3 5 -6 21l-3 26l-3 -26q-3 -16 -6 -21l-152 -257h-176l149 230q21 32 37 58l64 96l-142 209l-109 157h180l68 -111q24 -41 40 -66 q22 -37 40 -63q3 -4 5 -16l3 -23l3 23q2 12 5 16l75 119q21 33 37 60q18 32 32 61h176z" />
<glyph unicode="Y" horiz-adv-x="641" d="M634 751q-12 -23 -28 -54l-147 -288l-46 -93q-18 -36 -18 -87v-229h-150v229q0 51 -18 87l-221 435h161l137 -288q4 -9 7 -20q8 -29 9 -64q1 35 9 64q3 11 7 20l103 214l34 74h161z" />
<glyph unicode="Z" horiz-adv-x="641" d="M200 133h388v-133h-505l-63 132q35 45 94 116l217 260q55 68 88 112h-364v131h500l42 -134z" />
<glyph unicode="[" horiz-adv-x="359" d="M94 -139v872h240l-9 -98h-104v-676h104l9 -98h-240z" />
<glyph unicode="\" horiz-adv-x="381" d="M293 -139l-312 872h106l313 -872h-107z" />
<glyph unicode="]" horiz-adv-x="359" d="M265 733v-872h-240l9 98h104v676h-104l-9 98h240z" />
<glyph unicode="^" horiz-adv-x="530" d="M346 487l-83 224l-81 -224h-105v11l102 255h171l103 -255v-11h-107z" />
<glyph unicode="_" d="M32 -163v91h436v-91h-436z" />
<glyph unicode="`" d="M256 582l-120 151h146l82 -140v-11h-108z" />
<glyph unicode="a" horiz-adv-x="594" d="M461 482q67 -64 67 -162v-320h-133l-4 47q-55 -53 -143 -53q-80 0 -137 50q-56 49 -56 118v15q0 70 56 119q57 49 137 49q89 0 143 -48v40q0 56 -39 81q-26 17 -65 17h-8q-86 -4 -155 -58q-11 30 -22 63l-17 54q49 25 94 36q53 14 118 14q99 0 164 -62zM303 101 q90 0 90 71q0 70 -90 70h-20q-90 0 -90 -70q0 -71 90 -71h20z" />
<glyph unicode="b" horiz-adv-x="647" d="M80 0v727l147 26v-275q53 62 149 62q79 0 134 -57q56 -57 56 -141v-144q0 -85 -56 -142q-54 -56 -134 -56q-99 0 -149 62l-5 -62h-142zM226 215q0 -107 97 -107q96 0 96 107v106q0 106 -96 106q-41 0 -68 -29q-29 -31 -29 -77v-106z" />
<glyph unicode="c" horiz-adv-x="557" d="M511 61q-82 -64 -183 -64h-4q-107 0 -178 66q-73 67 -73 170v73q0 104 71 172q71 67 180 67h4q104 0 179 -57l-45 -115q-28 22 -59 37q-37 18 -67 18q-49 0 -80 -32q-33 -34 -33 -94v-68q0 -63 33 -94q29 -27 80 -27q39 0 79 22q33 17 61 45z" />
<glyph unicode="d" horiz-adv-x="637" d="M423 0l-5 63q-51 -63 -149 -63q-80 0 -134 56q-56 57 -56 142v144q0 84 56 141q55 57 134 57q95 0 150 -63v254l146 26v-757h-142zM419 321q0 46 -29 77q-27 29 -68 29q-96 0 -96 -106v-106q0 -107 96 -107q97 0 97 107v106z" />
<glyph unicode="e" horiz-adv-x="609" d="M138 60q-74 68 -74 182v42q0 112 67 185q69 76 186 76q98 0 162 -48q67 -51 67 -133q0 -63 -46 -103q-50 -43 -141 -43h-149q1 -49 35 -77q28 -23 71 -26q9 -1 18 -1q50 0 101 23q49 22 86 55l-4 -112q0 -18 -1 -29q-34 -22 -81 -37q-60 -19 -119 -19q-108 0 -178 65z M210 318h131q70 0 70 55q0 59 -81 59q-51 0 -85 -27q-35 -29 -35 -73v-14z" />
<glyph unicode="f" horiz-adv-x="442" d="M109 0l1 435h-74v104h74v11q0 93 50 148q45 50 122 58q22 3 43 3q22 0 42 -3q33 -5 58 -15l-2 -116q-32 25 -72 25q-13 0 -27 -3q-33 -6 -49 -25q-20 -23 -20 -69v-14h168l-1 -104h-167l1 -435h-147z" />
<glyph unicode="g" horiz-adv-x="617" d="M547 38q0 -240 -218 -253q-10 -1 -28 -1q-98 0 -175 47l18 132q81 -63 167 -63q88 0 88 92v69q-53 -62 -149 -62q-79 0 -134 57q-56 57 -56 141v144q0 85 56 142q54 56 134 56q98 0 149 -63l5 63h143v-501zM400 208v126q-8 97 -97 97q-96 0 -96 -107v-106q0 -106 96 -106 q89 0 97 96z" />
<glyph unicode="h" horiz-adv-x="654" d="M522 486q54 -52 54 -126v-360h-146v312q0 41 -29 71q-29 29 -69 29q-41 0 -70 -29t-29 -69v-314h-147v738l147 20v-294q48 74 158 74q76 0 131 -52z" />
<glyph unicode="i" horiz-adv-x="320" d="M86 0v528l147 20v-548h-147zM157 616q-82 0 -82 81q0 82 82 82h6q81 -2 81 -82q0 -79 -80 -81h-7z" />
<glyph unicode="j" horiz-adv-x="340" d="M0 -80q28 -10 49 -10q55 0 55 75v542l147 20v-520q0 -116 -44 -171q-28 -36 -78 -51q-32 -10 -67 -10q-30 0 -62 7v118zM174 616q-82 0 -82 81q0 82 82 82h6q81 -2 81 -82q0 -79 -80 -81h-7z" />
<glyph unicode="k" horiz-adv-x="602" d="M224 0h-147v738l147 20v-442l92 105l100 118h167q-90 -103 -198 -228q20 -31 46 -69q31 -44 64 -88q21 -28 52 -28q14 0 30 6v-121q-29 -19 -63 -19q-12 0 -25 2q-47 10 -73 46q-28 37 -69 96l-57 82l-20 -21q-5 -5 -9 -8q-23 -23 -37 -40v-149z" />
<glyph unicode="l" horiz-adv-x="320" d="M232 0h-146v736l146 20v-756z" />
<glyph unicode="m" horiz-adv-x="949" d="M822 486q48 -51 48 -126v-360h-146v315q0 97 -86 97q-88 0 -88 -94v-318h-146v315q0 97 -86 97q-87 0 -87 -95v-317h-147v521l147 20v-89q56 86 146 86q110 0 158 -106l14 20q57 86 148 86q75 0 125 -52z" />
<glyph unicode="n" horiz-adv-x="655" d="M523 486q54 -52 54 -126v-360h-146v312q0 41 -29 71q-29 29 -69 29q-41 0 -70 -29t-29 -71v-312h-147v521l147 20v-79q49 76 158 76q76 0 131 -52z" />
<glyph unicode="o" horiz-adv-x="636" d="M131 71q-71 71 -71 178v43q0 102 70 175q74 77 188 77q116 0 191 -77q70 -72 70 -176v-43q0 -106 -70 -177q-73 -75 -188 -75q-117 0 -190 75zM207 237q0 -126 114 -126q111 0 111 126v65q0 127 -114 127q-111 0 -111 -127v-65z" />
<glyph unicode="p" horiz-adv-x="630" d="M72 517l142 24l5 -62q51 63 149 63q80 0 134 -56q56 -56 56 -141v-150q0 -84 -56 -141q-55 -56 -134 -56q-101 0 -149 55v-250l-147 -20v734zM218 216q0 -46 29 -77q27 -29 68 -29q96 0 96 106v112q0 106 -96 106q-97 0 -97 -106v-112z" />
<glyph unicode="q" horiz-adv-x="612" d="M537 541v-716l-147 -37v269q-50 -59 -149 -59q-79 0 -134 57q-56 57 -56 141v148q0 85 56 142q54 56 134 56q98 0 149 -63l5 62h142zM391 327q0 107 -97 107q-96 0 -96 -107v-110q0 -106 96 -106q41 0 68 29q29 31 29 77v110z" />
<glyph unicode="r" horiz-adv-x="434" d="M77 523l146 19v-103q15 42 52 71q40 31 85 31q29 0 48 -10l-14 -135q-19 12 -46 12q-6 0 -12 -1q-113 -10 -113 -130v-277h-146v523z" />
<glyph unicode="s" horiz-adv-x="540" d="M88 182q56 -34 95 -50q46 -19 94 -24q10 -1 18 -1q52 0 61 37q1 6 1 12q0 33 -51 47l-66 17q-39 11 -52 16q-64 26 -93 69q-23 34 -23 78q0 19 4 40q12 63 71 94q51 28 133 28q52 0 108 -16q48 -14 96 -39l-17 -132q-93 63 -161 71q-13 2 -24 2q-17 0 -30 -4 q-27 -8 -34 -29q-3 -9 -3 -17q0 -34 53 -49q26 -7 64 -19l63 -19q103 -33 103 -133q0 -7 -1 -15q-6 -79 -67 -118q-53 -34 -135 -34h-4q-43 0 -86 8q-35 7 -69 19q-24 8 -45 19q-16 7 -16 8z" />
<glyph unicode="t" horiz-adv-x="463" d="M390 28q-6 -4 -13 -7q-17 -8 -35 -13q-30 -8 -62 -8q-19 0 -39 3q-66 10 -98 52q-37 47 -37 139v244h-86v104h86v157l146 20v-177h164v-104h-163v-215q0 -89 39 -101q11 -4 24 -4q16 0 34 6q28 8 50 24l1 -114z" />
<glyph unicode="u" horiz-adv-x="625" d="M126 52q-54 52 -54 126v360h146v-312q0 -41 29 -71q29 -29 69 -29q41 0 70 29t29 71v312h147v-538h-139l-8 78q-50 -78 -158 -78q-76 0 -131 52z" />
<glyph unicode="v" horiz-adv-x="554" d="M353 0h-151l-179 541h155l40 -141q1 -1 1 -3l43 -152q11 -43 14 -106q3 64 14 105l71 243q11 39 16 54h155z" />
<glyph unicode="w" horiz-adv-x="804" d="M631 0h-157l-66 269l-6 73l-7 -73l-66 -269h-157l-156 539h152l79 -305q3 -13 5 -39l5 -49l4 49q3 25 7 39l75 305h117l74 -305q3 -12 6 -37l4 -51q6 70 10 88l82 305h151z" />
<glyph unicode="x" horiz-adv-x="577" d="M561 0h-166l-96 166q-2 3 -3 10l-5 45l-4 -46q-2 -7 -4 -10l-36 -64q-8 -13 -13 -23q-30 -54 -45 -78h-166q27 39 50 75l124 193l-127 198q-22 35 -48 73h167l89 -159q2 -3 3 -6q4 -6 6 -22l4 -37l5 37q2 16 5 21l93 166h167q-26 -39 -50 -77q-9 -13 -20 -31l-18 -29 q-22 -35 -39 -60q-22 -35 -49 -74q27 -39 50 -74z" />
<glyph unicode="y" horiz-adv-x="528" d="M271 158q0 4 3 31q5 34 9 50l66 234q14 48 20 66h152l-199 -603q-44 -130 -172 -130h-15l-21 2q-28 3 -57 13l11 122l25 -8l10 -2q17 -4 34 -4h12q28 1 52 76l-192 535h156l44 -142l47 -159q3 -9 6 -24z" />
<glyph unicode="z" horiz-adv-x="555" d="M84 0l-33 128q20 24 59 67l115 122q23 23 37 39q39 41 58 63h-231l-21 120h421v-139q-8 -10 -44 -49l-157 -168l-57 -63h269v-120h-416z" />
<glyph unicode="{" horiz-adv-x="359" d="M316 -139h-75q-93 0 -137 35q-41 31 -41 90q0 32 18 66q13 23 40 57l21 25q12 14 19 24q18 27 18 46q0 44 -68 44h-57v98h57q68 0 68 44q0 19 -18 46q-7 10 -19 24l-21 25q-27 33 -40 57q-18 33 -18 65q0 58 40 90q44 36 138 36h75v-98h-79q-54 0 -54 -41q0 -16 18 -39 l19 -23l16 -17q3 -4 6 -6q27 -31 40 -53q18 -32 18 -60q0 -82 -111 -95v-8q111 -12 111 -95q0 -27 -18 -58q-13 -22 -40 -53l-17 -18l-24 -29q-18 -24 -18 -40q0 -41 54 -41h79v-98z" />
<glyph unicode="|" horiz-adv-x="277" d="M89 -220v988h99v-988h-99z" />
<glyph unicode="}" horiz-adv-x="359" d="M43 733h75q93 0 137 -35q41 -31 41 -90q0 -32 -18 -66q-13 -23 -40 -56l-21 -26q-12 -14 -19 -24q-18 -27 -18 -46q0 -44 68 -44h57v-98h-57q-68 0 -68 -44q0 -19 18 -46q7 -10 19 -24l21 -25q27 -33 40 -57q18 -33 18 -65q0 -58 -39 -90q-45 -36 -139 -36h-75v98h79 q54 0 54 41q0 16 -18 39l-40 47q-28 30 -41 52q-18 32 -18 60q0 82 111 95v8q-111 12 -111 95q0 27 18 58q13 22 41 53l40 47q18 24 18 40q0 41 -54 41h-79v98z" />
<glyph unicode="~" horiz-adv-x="530" d="M469 247q-54 -49 -109 -49q-22 0 -48 8q-16 6 -46 19l-46 19q-25 8 -45 8q-57 0 -115 -50v109q47 44 115 44q22 0 48 -8q16 -5 46 -18l45 -19q25 -8 46 -8q45 0 109 55v-110z" />
<glyph unicode="&#xa1;" horiz-adv-x="304" d="M104 308h96q2 -26 4 -69l8 -162v-278h-121v278zM152 557q76 0 76 -73q0 -72 -76 -72q-77 0 -77 72q0 73 77 73z" />
<glyph unicode="&#xa2;" horiz-adv-x="588" d="M471 197l38 -115q-83 -61 -189 -61h-8q-34 0 -64 9l-30 -86h-46l36 102q-123 64 -123 201v94q0 93 67 159q66 66 160 66h8q35 0 66 -6l29 83h46l-33 -93q43 -13 73 -33l-35 -109q-38 25 -73 39l-110 -315q15 -5 29 -5h8q22 0 50 11q23 9 49 24q19 11 37 24zM210 238 q0 -48 35 -83l106 303q-13 3 -28 3h-7q-45 0 -76 -34q-30 -33 -30 -78v-111z" />
<glyph unicode="&#xa3;" horiz-adv-x="586" d="M531 110v-110h-464v110q31 0 64 3l24 4q15 3 26 7q29 13 37 42q3 13 3 25q0 19 -8 38q-5 12 -15 27l-17 26h-110v91h57q-46 81 -46 162q0 104 78 166q71 57 174 57q136 0 207 -97l-89 -78q-40 64 -119 64q-125 0 -125 -112q0 -31 23 -83q18 -40 42 -79h226l-39 -91h-135 q21 -47 21 -86q0 -22 -4 -40q-6 -24 -19 -46h208z" />
<glyph unicode="&#xa4;" horiz-adv-x="584" d="M464 30l-51 55q-55 -35 -121 -35t-121 35l-51 -55l-63 61l52 54q-40 61 -40 135q0 76 40 137l-52 54l63 61l51 -55q55 35 121 35t121 -35l51 55l63 -61l-52 -54q40 -61 40 -136t-40 -136l52 -54zM291 428q-130 0 -130 -147t130 -147q132 0 132 147t-132 147z" />
<glyph unicode="&#xa5;" horiz-adv-x="607" d="M596 751q-47 -89 -95 -184q-44 -89 -91 -188h104v-56h-130q-14 -33 -18 -70h148v-56h-150v-197h-126v197h-145v56h144q-3 36 -18 70h-126v56h99l-181 372h141l73 -157q40 -89 54 -122q9 -21 11 -30q5 -15 10 -51q7 38 11 51q2 7 6 14l3 7q1 4 2 4l129 284h145z" />
<glyph unicode="&#xa6;" horiz-adv-x="277" d="M89 0v301h99v-301h-99zM89 432v301h99v-301h-99z" />
<glyph unicode="&#xa7;" horiz-adv-x="574" d="M458 210q44 -41 44 -114q0 -10 -1 -21q-6 -73 -59 -110q-50 -34 -135 -34h-1q-25 0 -51 5l-44 11q-27 6 -47 9q-17 2 -36 2q-13 0 -26 -1l13 111h9q22 0 47 -4l96 -24q22 -4 40 -4h7q68 4 68 56q0 64 -122 74q-81 6 -128 46q-48 42 -48 113q0 13 1 26q8 59 42 93 q-44 38 -44 104q0 12 2 26q16 135 156 143q10 1 19 1q25 0 50 -4q13 -2 29 -6l21 -4q5 -1 7 -2q34 -8 55 -9q10 -1 20 -1q20 0 40 4l-9 -59l-9 -45q-14 -4 -32 -4q-26 0 -60 8l-44 10q-24 7 -34 8q-15 2 -27 2q-59 0 -66 -46q-1 -8 -1 -15q0 -36 32 -50q14 -6 43 -10 q8 -2 27 -4l29 -4q171 -25 171 -162q0 -9 -1 -18q-4 -61 -43 -97zM201 347v-9q0 -60 88 -69q12 -1 23 -1q67 0 70 56v5q0 22 -17 38q-22 23 -68 27q-10 1 -20 1q-71 0 -76 -48z" />
<glyph unicode="&#xa8;" d="M151 613q-61 0 -61 62t61 62t61 -62t-61 -62zM349 613q-61 0 -61 62t62 62q60 0 60 -62t-61 -62z" />
<glyph unicode="&#xa9;" horiz-adv-x="753" d="M624 108q-87 -97 -247 -97t-247 97q-85 94 -85 259q0 167 87 261q88 96 245 96t244 -94t87 -263q0 -165 -84 -259zM378 667q-272 0 -272 -300q0 -142 66 -218q69 -81 206 -81q271 0 271 299q0 300 -271 300zM378 181q-65 0 -110 45q-46 46 -46 110v64q0 64 46 110 q45 45 110 45h6q75 0 124 -34l-24 -75q-23 16 -44 25q-29 12 -54 12h-5q-73 0 -73 -77v-76q0 -31 21 -54t49 -23h6q27 0 68 24q7 4 14 9l21 15l26 -78q-54 -42 -129 -42h-6z" />
<glyph unicode="&#xaa;" horiz-adv-x="425" d="M324 699q46 -45 46 -113v-222h-93l-2 36q-43 -41 -100 -41q-55 0 -95 35q-39 34 -39 82v11q0 48 39 83q40 34 95 34t100 -43v37q0 39 -27 58q-20 14 -47 14h-4q-29 -1 -58 -14q-24 -11 -50 -30q-8 19 -14 40l-12 34q21 11 31 15q18 9 33 14q39 13 82 13q69 0 115 -43z M213 434q63 0 63 49t-63 49h-13q-63 0 -63 -49t63 -49h13z" />
<glyph unicode="&#xab;" horiz-adv-x="555" d="M178 41l-142 231l142 231h109l-122 -231l122 -231h-109zM411 41l-143 231l143 231h107l-120 -231l120 -231h-107z" />
<glyph unicode="&#xac;" horiz-adv-x="586" d="M413 113v170h-355v108h469v-278h-114z" />
<glyph unicode="&#xad;" horiz-adv-x="250" d="M23 215v101h204v-101h-204z" />
<glyph unicode="&#xae;" horiz-adv-x="455" d="M360 417q-49 -53 -132 -53q-84 0 -133 53q-48 52 -48 136q0 85 49 137q49 53 132 53q81 0 131 -51q49 -52 49 -139q0 -84 -48 -136zM228 710q-143 0 -143 -157q0 -71 35 -112q38 -44 109 -44q141 0 141 156q0 157 -142 157zM296 498l1 -35l-3 -2q-4 -1 -12 -1q-9 0 -17 3 q-9 3 -17 13l-9 14l-15 30q-5 5 -11 5h-12v-63h-39v185h71q27 0 43 -18q17 -17 17 -43q0 -36 -34 -55l20 -33q0 -3 7 -3q3 0 4 1zM201 561h30q9 0 16 7q7 9 7 18q0 11 -6 18q-7 7 -15 7h-32v-50z" />
<glyph unicode="&#xaf;" d="M118 629v104h265v-104h-265z" />
<glyph unicode="&#xb0;" horiz-adv-x="401" d="M200 452q-161 0 -161 150q0 151 160 151q163 0 163 -150q0 -151 -162 -151zM200 677q-69 0 -69 -74q0 -76 69 -76q70 0 70 76q0 74 -70 74z" />
<glyph unicode="&#xb1;" horiz-adv-x="530" d="M467 0h-404v98h404v-98zM213 280h-150v99h150v152h104v-152h150v-99h-150v-151h-104v151z" />
<glyph unicode="&#xb2;" horiz-adv-x="431" d="M198 605l163 1v-86h-287l-25 79l191 179q25 25 25 47q0 15 -13 29q-15 16 -33 16q-19 0 -42 -17l-7 -5q-3 -4 -7 -6l-15 -14q-19 -16 -36 -34l-62 66q74 79 133 93q21 5 41 5q54 0 94 -35q45 -39 45 -97q0 -56 -41 -98q-66 -67 -124 -123z" />
<glyph unicode="&#xb3;" horiz-adv-x="438" d="M367 609q0 -65 -49 -103q-44 -35 -109 -35q-112 0 -163 78l61 72q34 -64 103 -64q56 0 63 54q1 7 1 14q0 53 -63 53h-63v76h61q54 0 56 57v7q0 54 -57 54q-28 0 -53 -17q-17 -11 -44 -39l-58 75q35 30 69 46q43 20 86 20q62 0 106 -37q46 -38 46 -95q0 -71 -58 -105 q65 -38 65 -111z" />
<glyph unicode="&#xb4;" d="M243 602h-107v11l81 140h147z" />
<glyph unicode="&#xb5;" horiz-adv-x="619" d="M414 539h123v-533l-91 -12q-19 23 -39 31q-15 7 -37 7q-17 0 -31 -5q-8 -3 -24 -11q-14 -9 -24 -12q-17 -5 -37 -5q-26 0 -47 15v-232h-122v757h122v-333q0 -57 18 -78q13 -14 41 -14q13 0 24 3l39 15q12 3 26 3q18 0 36 -8q7 -3 13 -8q3 -1 6 -3l4 -3v426z" />
<glyph unicode="&#xb6;" horiz-adv-x="560" d="M395 -72v645q-28 7 -57 7v-652h-90v292h-29q-96 0 -139 47q-48 50 -48 169q0 235 259 235q45 0 95 -5q55 -5 99 -15v-723h-90z" />
<glyph unicode="&#xb7;" horiz-adv-x="285" d="M142 193q-77 0 -77 74q0 73 77 73q78 0 78 -73q0 -74 -78 -74z" />
<glyph unicode="&#xb8;" d="M245 -220q-49 0 -99 10l14 69q45 -13 81 -13q32 0 32 27q0 17 -13 23q-11 6 -68 20l23 96h61l-14 -56q92 -25 92 -89q0 -87 -109 -87z" />
<glyph unicode="&#xb9;" horiz-adv-x="414" d="M287 920v-400h-98v319l-76 -73l-51 65l129 115z" />
<glyph unicode="&#xba;" horiz-adv-x="456" d="M94 414q-49 49 -49 124v30q0 71 49 122q51 53 130 53q81 0 133 -53q49 -50 49 -123v-30q0 -74 -49 -123q-50 -52 -130 -52q-82 0 -133 52zM148 530q0 -89 79 -89q76 0 76 89v45q0 88 -79 88q-76 0 -76 -88v-45z" />
<glyph unicode="&#xbb;" horiz-adv-x="555" d="M376 41h-108l121 231l-121 231h108l142 -231zM144 41h-108l121 231l-121 231h108l143 -231z" />
<glyph unicode="&#xbc;" horiz-adv-x="1023" d="M402 0h-81l265 733h81zM305 707v-400h-98v319l-76 -73l-51 65l129 115zM981 80h-61v-80h-96v80h-186l-42 97l135 247q7 12 35 43l37 40h114q-10 -11 -35 -41l-37 -45l-41 -71l-60 -111q-4 -9 -8 -15q-17 -33 -29 -54h117v142h96v-142h61v-90z" />
<glyph unicode="&#xbd;" horiz-adv-x="1010" d="M402 0h-81l265 733h81zM305 707v-400h-98v319l-76 -73l-51 65l129 115zM774 85l163 1v-86h-287l-25 79l191 179q25 25 25 47q0 15 -13 29q-15 16 -33 16q-19 0 -42 -17l-7 -5q-3 -4 -7 -6l-15 -14q-19 -16 -36 -34l-62 66q74 79 133 93q21 5 41 5q54 0 94 -35 q45 -39 45 -97q0 -56 -41 -98q-66 -67 -124 -123z" />
<glyph unicode="&#xbe;" horiz-adv-x="1055" d="M425 0h-81l265 733h81zM999 80h-61v-80h-96v80h-186l-42 97l135 247q7 12 35 43l37 40h114q-10 -11 -35 -41l-37 -45l-41 -71l-60 -111q-4 -9 -8 -15q-17 -33 -29 -54h117v142h96v-142h61v-90zM367 395q0 -65 -49 -103q-44 -35 -109 -35q-112 0 -163 78l61 72 q34 -64 103 -64q56 0 63 54q1 7 1 14q0 53 -63 53h-63v76h61q54 0 56 57v7q0 54 -57 54q-28 0 -53 -17q-17 -11 -44 -39l-58 75q35 30 69 46q43 20 86 20q62 0 106 -37q46 -38 46 -95q0 -71 -58 -105q65 -38 65 -111z" />
<glyph unicode="&#xbf;" horiz-adv-x="454" d="M69 50q19 28 60 59q3 3 8 6q3 3 8 6l16 12q18 13 28 22q28 26 29 53l6 94h102l2 -117v-6q0 -36 -22 -67q-18 -25 -56 -52q-6 -5 -15 -11l-15 -11q-18 -12 -27 -20q-28 -22 -30 -42q-1 -6 -1 -12q0 -53 57 -63q9 -1 18 -1q59 0 123 64l44 -107q-70 -63 -162 -69h-17 q-77 0 -127 42q-56 47 -56 128q0 51 27 92zM270 551q76 0 76 -72t-77 -72t-77 72t78 72z" />
<glyph unicode="&#xc0;" horiz-adv-x="681" d="M285 788l-105 117h134l77 -107v-10h-106zM420 751l252 -751h-156l-21 68q-9 30 -18 57q-11 38 -24 77h-219l-68 -202h-156l255 751h155zM264 322h156l-71 240l-6 61l-6 -61z" />
<glyph unicode="&#xc1;" horiz-adv-x="679" d="M286 788v10l78 107h134l-106 -117h-106zM420 751l252 -751h-156l-21 68q-9 30 -18 57q-11 38 -24 77h-219l-68 -202h-156l255 751h155zM264 322h156l-71 240l-6 61l-6 -61z" />
<glyph unicode="&#xc2;" horiz-adv-x="683" d="M421 905l69 -107v-10h-99l-53 80l-52 -80h-96v10l69 107h162zM420 751l252 -751h-156l-21 68q-9 30 -18 57q-11 38 -24 77h-219l-68 -202h-156l255 751h155zM264 322h156l-71 240l-6 61l-6 -61z" />
<glyph unicode="&#xc3;" horiz-adv-x="683" d="M169 798q8 64 35 90q20 20 56 20q13 0 25 -2q14 -3 30 -11l50 -25q14 -7 23 -7q23 0 29 42h84q-7 -61 -32 -88q-22 -22 -59 -22q-29 0 -55 13l-50 25q-13 7 -23 7q-23 0 -29 -42h-84zM420 751l252 -751h-156l-21 68q-9 30 -18 57q-11 38 -24 77h-219l-68 -202h-156 l255 751h155zM264 322h156l-71 240l-6 61l-6 -61z" />
<glyph unicode="&#xc4;" horiz-adv-x="683" d="M243 796q-58 0 -58 55q0 54 59 54t59 -54q0 -55 -60 -55zM437 796q-60 0 -60 55q0 54 60 54q58 0 58 -54q0 -55 -58 -55zM420 751l252 -751h-156l-21 68q-9 30 -18 57q-11 38 -24 77h-219l-68 -202h-156l255 751h155zM264 322h156l-71 240l-6 61l-6 -61z" />
<glyph unicode="&#xc5;" horiz-adv-x="683" d="M343 793q-120 0 -120 82q0 83 122 83q119 0 119 -82q0 -83 -121 -83zM343 913q-43 0 -43 -38q0 -37 43 -37q44 0 44 37q0 38 -44 38zM420 751l252 -751h-156l-21 68q-9 30 -18 57q-11 38 -24 77h-219l-68 -202h-156l255 751h155zM264 322h156l-71 240l-6 61l-6 -61z" />
<glyph unicode="&#xc6;" horiz-adv-x="947" d="M463 0v293l2 22h-220l-103 -315h-133l254 751h632v-116h-306v-159q0 -49 51 -49h218v-111h-233q-36 0 -36 -49v-150h296l14 -117h-436zM346 643l-69 -221h197q-9 25 -11 72v148z" />
<glyph unicode="&#xc7;" horiz-adv-x="601" d="M328 -44q92 -25 92 -89q0 -87 -109 -87q-49 0 -99 10l14 69q45 -13 81 -13q32 0 32 27q0 17 -13 23q-11 6 -68 20l20 82q-100 22 -161 114q-58 88 -58 204v118q0 130 73 223q79 99 202 100h14q124 -3 222 -74l-68 -108q-33 28 -73 45q-45 19 -85 19h-7q-65 0 -108 -62 q-41 -59 -41 -143v-118q0 -93 35 -146q38 -60 114 -60h13q40 0 92 26q19 10 41 23q8 6 18 12l15 10l57 -109q-30 -17 -51 -28q-29 -15 -54 -26q-64 -26 -115 -26h-16z" />
<glyph unicode="&#xc8;" horiz-adv-x="611" d="M295 788l-105 117h134l77 -107v-10h-106zM96 0v751h467v-133h-319v-176h285v-127h-285v-182h308l19 -133h-475z" />
<glyph unicode="&#xc9;" horiz-adv-x="611" d="M249 788v10l78 107h134l-106 -117h-106zM96 0v751h467v-133h-319v-176h285v-127h-285v-182h308l19 -133h-475z" />
<glyph unicode="&#xca;" horiz-adv-x="611" d="M411 905l69 -107v-10h-99l-53 80l-52 -80h-96v10l69 107h162zM96 0v751h467v-133h-319v-176h285v-127h-285v-182h308l19 -133h-475z" />
<glyph unicode="&#xcb;" horiz-adv-x="607" d="M227 796q-58 0 -58 55q0 54 59 54t59 -54q0 -55 -60 -55zM421 796q-60 0 -60 55q0 54 60 54q58 0 58 -54q0 -55 -58 -55zM96 0v751h467v-133h-319v-176h285v-127h-285v-182h308l19 -133h-475z" />
<glyph unicode="&#xcc;" horiz-adv-x="339" d="M120 788l-105 117h134l77 -107v-10h-106zM242 0h-146v736l146 20v-756z" />
<glyph unicode="&#xcd;" horiz-adv-x="330" d="M112 788v10l78 107h134l-106 -117h-106zM242 0h-146v736l146 20v-756z" />
<glyph unicode="&#xce;" horiz-adv-x="337" d="M252 906l66 -108v-10h-95l-52 81l-50 -81h-93v10l67 108h157zM242 0h-146v736l146 20v-756z" />
<glyph unicode="&#xcf;" horiz-adv-x="334" d="M72 786q-56 0 -56 55q0 54 57 54q58 0 58 -54q0 -55 -59 -55zM260 786q-58 0 -58 55q0 54 58 54q57 0 57 -54q0 -55 -57 -55zM242 0h-146v736l146 20v-756z" />
<glyph unicode="&#xd0;" horiz-adv-x="710" d="M372 751q128 -2 204 -98q73 -91 73 -230v-98q0 -142 -73 -231q-76 -93 -204 -94h-276v336h-80v98h80v317h276zM519 423q0 106 -32 156q-35 56 -117 56h-148v-201h137v-98h-137v-218h145q85 0 121 53q31 48 31 154v98z" />
<glyph unicode="&#xd1;" horiz-adv-x="751" d="M216 797q8 64 35 90q20 20 56 20q13 0 25 -2q14 -3 30 -11l50 -25q14 -7 23 -7q23 0 29 42h84q-7 -61 -32 -88q-22 -22 -59 -22q-29 0 -55 13l-50 25q-13 7 -23 7q-23 0 -29 -42h-84zM670 751v-751h-134l-284 458l-9 49v-507h-148v751h136l283 -443l9 -47v490h147z" />
<glyph unicode="&#xd2;" horiz-adv-x="748" d="M318 788l-105 117h134l77 -107v-10h-106zM597 670q94 -91 94 -233v-125q0 -140 -94 -232q-91 -90 -223 -90t-222 90q-94 92 -94 232v125q0 142 94 233q90 89 222 89t223 -89zM541 442q0 84 -50 137q-48 50 -118 50t-118 -50q-50 -53 -50 -137v-134q0 -83 50 -136 q48 -51 118 -51t118 51q50 53 50 136v134z" />
<glyph unicode="&#xd3;" horiz-adv-x="746" d="M305 788v10l78 107h134l-106 -117h-106zM597 670q94 -91 94 -233v-125q0 -140 -94 -232q-91 -90 -223 -90t-222 90q-94 92 -94 232v125q0 142 94 233q90 89 222 89t223 -89zM541 442q0 84 -50 137q-48 50 -118 50t-118 -50q-50 -53 -50 -137v-134q0 -83 50 -136 q48 -51 118 -51t118 51q50 53 50 136v134z" />
<glyph unicode="&#xd4;" horiz-adv-x="746" d="M455 905l69 -107v-10h-99l-53 80l-52 -80h-96v10l69 107h162zM597 670q94 -91 94 -233v-125q0 -140 -94 -232q-91 -90 -223 -90t-222 90q-94 92 -94 232v125q0 142 94 233q90 89 222 89t223 -89zM541 442q0 84 -50 137q-48 50 -118 50t-118 -50q-50 -53 -50 -137v-134 q0 -83 50 -136q48 -51 118 -51t118 51q50 53 50 136v134z" />
<glyph unicode="&#xd5;" horiz-adv-x="715" d="M192 798q8 64 35 90q20 20 56 20q13 0 25 -2q14 -3 30 -11l50 -25q14 -7 23 -7q23 0 29 42h84q-7 -61 -32 -88q-22 -22 -59 -22q-29 0 -55 13l-50 25q-13 7 -23 7q-23 0 -29 -42h-84zM348 -9q-138 0 -216 101q-73 94 -73 243v77q0 149 72 243q78 101 217 101h28 q131 0 211 -95q78 -94 78 -249v-77q0 -155 -76 -248q-79 -96 -214 -96h-27zM530 402q0 107 -38 170q-43 71 -127 71q-97 0 -138 -72q-18 -31 -26 -76q-7 -40 -7 -93v-59q0 -103 37 -162q43 -71 133 -71t131 71q35 59 35 164v57z" />
<glyph unicode="&#xd6;" horiz-adv-x="743" d="M277 796q-58 0 -58 55q0 54 59 54t59 -54q0 -55 -60 -55zM471 796q-60 0 -60 55q0 54 60 54q58 0 58 -54q0 -55 -58 -55zM597 670q94 -91 94 -233v-125q0 -140 -94 -232q-91 -90 -223 -90t-222 90q-94 92 -94 232v125q0 142 94 233q90 89 222 89t223 -89zM541 442 q0 84 -50 137q-48 50 -118 50t-118 -50q-50 -53 -50 -137v-134q0 -83 50 -136q48 -51 118 -51t118 51q50 53 50 136v134z" />
<glyph unicode="&#xd7;" horiz-adv-x="530" d="M407 53l-142 142l-143 -142l-73 73l142 142l-141 141l74 74l141 -141l141 141l73 -74l-141 -141l143 -142z" />
<glyph unicode="&#xd8;" horiz-adv-x="726" d="M578 671q87 -95 87 -259v-77q0 -155 -76 -248q-79 -96 -214 -96h-27q-101 0 -171 56l-65 -101h-49l83 129q-87 96 -87 260v77q0 149 72 243q78 101 217 101h28q99 0 171 -56l65 101h50zM194 343q0 -91 29 -148l255 397q-41 51 -113 51q-97 0 -138 -72q-18 -31 -26 -76 q-7 -40 -7 -93v-59zM530 402q0 94 -28 151l-254 -396q44 -47 116 -47q90 0 131 71q35 59 35 164v57z" />
<glyph unicode="&#xd9;" horiz-adv-x="769" d="M347 788l-105 117h134l77 -107v-10h-106zM695 751v-449q0 -136 -86 -225q-86 -87 -216 -87t-215 87q-87 89 -87 225v449h148v-464q0 -71 43 -119q43 -49 110 -49t110 49q43 48 43 119v464h150z" />
<glyph unicode="&#xda;" horiz-adv-x="779" d="M317 788v10l78 107h134l-106 -117h-106zM695 751v-449q0 -136 -86 -225q-86 -87 -216 -87t-215 87q-87 89 -87 225v449h148v-464q0 -71 43 -119q43 -49 110 -49t110 49q43 48 43 119v464h150z" />
<glyph unicode="&#xdb;" horiz-adv-x="771" d="M474 905l69 -107v-10h-99l-53 80l-52 -80h-96v10l69 107h162zM695 751v-449q0 -136 -86 -225q-86 -87 -216 -87t-215 87q-87 89 -87 225v449h148v-464q0 -71 43 -119q43 -49 110 -49t110 49q43 48 43 119v464h150z" />
<glyph unicode="&#xdc;" horiz-adv-x="764" d="M296 796q-58 0 -58 55q0 54 59 54t59 -54q0 -55 -60 -55zM490 796q-60 0 -60 55q0 54 60 54q58 0 58 -54q0 -55 -58 -55zM695 751v-449q0 -136 -86 -225q-86 -87 -216 -87t-215 87q-87 89 -87 225v449h148v-464q0 -71 43 -119q43 -49 110 -49t110 49q43 48 43 119v464 h150z" />
<glyph unicode="&#xdd;" horiz-adv-x="643" d="M256 768v10l78 107h134l-106 -117h-106zM634 751q-12 -23 -28 -54l-147 -288l-46 -93q-18 -36 -18 -87v-229h-150v229q0 51 -18 87l-221 435h161l137 -288q4 -9 7 -20q8 -29 9 -64q1 35 9 64q3 11 7 20l103 214l34 74h161z" />
<glyph unicode="&#xde;" horiz-adv-x="637" d="M507 188q-68 -55 -185 -55h-89v-133h-137v733h137v-126h99q123 0 185 -53q68 -57 68 -178q0 -126 -78 -188zM409 473q-26 24 -78 24h-98v-252h91q56 0 84 25q34 31 34 105q0 69 -33 98z" />
<glyph unicode="&#xdf;" horiz-adv-x="584" d="M385 -10q-26 0 -53 5q-34 6 -81 21l20 103q50 -19 70 -24q18 -5 36 -5q53 0 53 54q0 22 -27 46q-10 9 -28 21l-15 11q-5 3 -8 6q-5 3 -8 6q-41 28 -60 53q-27 36 -27 78q0 36 20 72q14 25 45 60q2 3 6 7q0 1 3 3q1 2 3 4l11 13q13 15 21 27q20 29 20 54q0 68 -91 68 q-97 0 -97 -92v-581h-121v578q0 100 46 147q53 53 178 53q205 0 205 -160q0 -36 -21 -73q-14 -25 -45 -60l-18 -20q-4 -4 -6 -7q-14 -15 -21 -26q-21 -28 -21 -51q0 -24 27 -49q10 -9 28 -23l32 -24q40 -31 60 -58q27 -38 27 -83q0 -154 -163 -154z" />
<glyph unicode="&#xe0;" horiz-adv-x="574" d="M253 582l-120 151h146l82 -140v-11h-108zM457 482q67 -64 67 -162v-320h-133l-4 47q-55 -53 -143 -53q-80 0 -137 50q-56 49 -56 118v15q0 70 56 119q57 49 137 49q89 0 143 -48v40q0 56 -39 83q-27 20 -66 20h-7q-42 -2 -83 -20q-36 -15 -72 -43q-12 31 -22 62l-17 53 q50 25 94 37q54 15 118 15q99 0 164 -62zM299 101q90 0 90 71q0 70 -90 70h-20q-90 0 -90 -70q0 -71 90 -71h20z" />
<glyph unicode="&#xe1;" horiz-adv-x="573" d="M324 582h-107v11l81 140h147zM457 482q67 -64 67 -162v-320h-133l-4 47q-55 -53 -143 -53q-80 0 -137 50q-56 49 -56 118v15q0 70 56 119q57 49 137 49q89 0 143 -48v40q0 56 -39 83q-27 20 -66 20h-7q-42 -2 -83 -20q-36 -15 -72 -43q-12 31 -22 62l-17 53q50 25 94 37 q54 15 118 15q99 0 164 -62zM299 101q90 0 90 71q0 70 -90 70h-20q-90 0 -90 -70q0 -71 90 -71h20z" />
<glyph unicode="&#xe2;" horiz-adv-x="576" d="M360 582l-61 109l-60 -109h-103v10l79 141h171l79 -141v-10h-105zM457 482q67 -64 67 -162v-320h-133l-4 47q-55 -53 -143 -53q-80 0 -137 50q-56 49 -56 118v15q0 70 56 119q57 49 137 49q89 0 143 -48v40q0 56 -39 83q-27 20 -66 20h-7q-42 -2 -83 -20q-36 -15 -72 -43 q-12 31 -22 62l-17 53q50 25 94 37q54 15 118 15q99 0 164 -62zM299 101q90 0 90 71q0 70 -90 70h-20q-90 0 -90 -70q0 -71 90 -71h20z" />
<glyph unicode="&#xe3;" horiz-adv-x="583" d="M483 715q-8 -78 -35 -111q-23 -28 -64 -28q-36 0 -66 18l-53 33q-14 9 -28 9q-31 0 -35 -54h-90q8 80 37 113q23 26 62 26q38 0 66 -18l53 -33q15 -9 28 -9q31 0 35 54h90zM457 482q67 -64 67 -162v-320h-133l-4 47q-55 -53 -143 -53q-80 0 -137 50q-56 49 -56 118v15 q0 70 56 119q57 49 137 49q89 0 143 -48v40q0 56 -39 83q-27 20 -66 20h-7q-42 -2 -83 -20q-36 -15 -72 -43q-12 31 -22 62l-17 53q50 25 94 37q54 15 118 15q99 0 164 -62zM299 101q90 0 90 71q0 70 -90 70h-20q-90 0 -90 -70q0 -71 90 -71h20z" />
<glyph unicode="&#xe4;" horiz-adv-x="581" d="M197 593q-61 0 -61 62t61 62t61 -62t-61 -62zM395 593q-61 0 -61 62t62 62q60 0 60 -62t-61 -62zM457 482q67 -64 67 -162v-320h-133l-4 47q-55 -53 -143 -53q-80 0 -137 50q-56 49 -56 118v15q0 70 56 119q57 49 137 49q89 0 143 -48v40q0 56 -39 83q-27 20 -66 20h-7 q-42 -2 -83 -20q-36 -15 -72 -43q-12 31 -22 62l-17 53q50 25 94 37q54 15 118 15q99 0 164 -62zM299 101q90 0 90 71q0 70 -90 70h-20q-90 0 -90 -70q0 -71 90 -71h20z" />
<glyph unicode="&#xe5;" horiz-adv-x="580" d="M290 577q-128 0 -128 92q0 93 128 93q127 0 127 -92q0 -93 -127 -93zM289 712q-45 0 -45 -43q0 -42 45 -42q46 0 46 42q0 43 -46 43zM457 482q67 -64 67 -162v-320h-133l-4 47q-55 -53 -143 -53q-80 0 -137 50q-56 49 -56 118v15q0 70 56 119q57 49 137 49q89 0 143 -48 v40q0 56 -39 83q-27 20 -66 20h-7q-42 -2 -83 -20q-36 -15 -72 -43q-12 31 -22 62l-17 53q50 25 94 37q54 15 118 15q99 0 164 -62zM299 101q90 0 90 71q0 70 -90 70h-20q-90 0 -90 -70q0 -71 90 -71h20z" />
<glyph unicode="&#xe6;" horiz-adv-x="880" d="M600 216q-38 0 -62 -11q-30 -13 -30 -37q0 -37 46 -57q30 -15 66 -15q43 0 95 21q45 17 95 59l-4 -126q-25 -23 -74 -40q-46 -16 -80 -16h-70q-73 0 -136 43q-37 0 -67 -6q-18 -4 -50 -15q-31 -11 -51 -15q-33 -7 -72 -7q-67 0 -109 43q-46 48 -46 134v8q0 68 52 113 q54 46 141 46h16q80 0 121 -48v23q0 46 -7 66q-25 56 -88 56q-84 0 -169 -53l-31 118l37 14q21 8 41 13q50 13 111 13q105 0 168 -65q61 64 150 64h32q86 0 144 -50q59 -51 59 -130v-3q0 -140 -176 -140h-52zM381 153q0 38 -28 65q-27 25 -65 25h-31q-76 0 -86 -64 q-2 -10 -2 -18q0 -48 48 -63q14 -4 30 -4h10q14 2 38 9l41 11q17 4 33 4q6 0 12 -1v36zM505 288q23 23 68 23h66q69 0 69 59q0 61 -70 61h-40q-45 0 -70 -30q-23 -27 -23 -68v-45z" />
<glyph unicode="&#xe7;" horiz-adv-x="491" d="M275 -40q92 -25 92 -89q0 -87 -109 -87q-49 0 -99 10l14 69q45 -13 81 -13q32 0 32 27q0 17 -13 23q-11 6 -68 20l20 82q-76 17 -124 78q-50 62 -50 141v94q0 93 67 159q66 66 160 66h8q109 0 181 -49l-35 -109q-36 23 -65 36q-42 17 -78 17h-7q-45 0 -76 -34 q-30 -33 -30 -78v-111q0 -45 30 -78t72 -33h8q22 0 50 11q23 9 49 24q19 11 37 24l15 11l38 -115q-83 -61 -189 -61h-2z" />
<glyph unicode="&#xe8;" horiz-adv-x="580" d="M233 582l-120 151h146l82 -140v-11h-108zM302 -5q-108 0 -178 65q-74 68 -74 182v42q0 112 67 185q69 76 186 76q98 0 162 -48q67 -51 67 -133q0 -63 -46 -103q-50 -43 -141 -43h-149q1 -49 35 -77q28 -23 71 -26q9 -1 18 -1q50 0 101 23q49 22 86 55l-4 -112 q0 -18 -1 -29q-34 -22 -81 -37q-60 -19 -119 -19zM196 318h131q70 0 70 55q0 59 -81 59q-51 0 -85 -27q-35 -29 -35 -73v-14z" />
<glyph unicode="&#xe9;" horiz-adv-x="578" d="M336 582h-107v11l81 140h147zM302 -5q-108 0 -178 65q-74 68 -74 182v42q0 112 67 185q69 76 186 76q98 0 162 -48q67 -51 67 -133q0 -63 -46 -103q-50 -43 -141 -43h-149q1 -49 35 -77q28 -23 71 -26q9 -1 18 -1q50 0 101 23q49 22 86 55l-4 -112q0 -18 -1 -29 q-34 -22 -81 -37q-60 -19 -119 -19zM196 318h131q70 0 70 55q0 59 -81 59q-51 0 -85 -27q-35 -29 -35 -73v-14z" />
<glyph unicode="&#xea;" horiz-adv-x="580" d="M357 582l-61 109l-60 -109h-103v10l79 141h171l79 -141v-10h-105zM302 -5q-108 0 -178 65q-74 68 -74 182v42q0 112 67 185q69 76 186 76q98 0 162 -48q67 -51 67 -133q0 -63 -46 -103q-50 -43 -141 -43h-149q1 -49 35 -77q28 -23 71 -26q9 -1 18 -1q50 0 101 23 q49 22 86 55l-4 -112q0 -18 -1 -29q-34 -22 -81 -37q-60 -19 -119 -19zM196 318h131q70 0 70 55q0 59 -81 59q-51 0 -85 -27q-35 -29 -35 -73v-14z" />
<glyph unicode="&#xeb;" horiz-adv-x="580" d="M194 593q-61 0 -61 62t61 62t61 -62t-61 -62zM392 593q-61 0 -61 62t62 62q60 0 60 -62t-61 -62zM302 -5q-108 0 -178 65q-74 68 -74 182v42q0 112 67 185q69 76 186 76q98 0 162 -48q67 -51 67 -133q0 -63 -46 -103q-50 -43 -141 -43h-149q1 -49 35 -77q28 -23 71 -26 q9 -1 18 -1q50 0 101 23q49 22 86 55l-4 -112q0 -18 -1 -29q-34 -22 -81 -37q-60 -19 -119 -19zM196 318h131q70 0 70 55q0 59 -81 59q-51 0 -85 -27q-35 -29 -35 -73v-14z" />
<glyph unicode="&#xec;" horiz-adv-x="294" d="M99 582l-120 151h146l82 -140v-11h-108zM86 0v530l122 17v-547h-122z" />
<glyph unicode="&#xed;" horiz-adv-x="294" d="M192 582h-107v11l81 140h147zM85 0v528l122 17v-545h-122z" />
<glyph unicode="&#xee;" horiz-adv-x="294" d="M199 582l-54 109l-53 -109h-92v10l70 141h153l70 -141v-10h-94zM86 0v530l122 17v-547h-122z" />
<glyph unicode="&#xef;" horiz-adv-x="294" d="M59 593q-56 0 -56 62t56 62q57 0 57 -62t-57 -62zM234 593q-57 0 -57 62t57 62t57 -62t-57 -62zM86 0v530l122 17v-547h-122z" />
<glyph unicode="&#xf0;" horiz-adv-x="573" d="M467 67q-58 -77 -182 -77q-234 0 -234 265q0 138 64 203q58 58 169 58q28 0 60 -8q-23 48 -60 103l-72 -41l-37 53l71 41q-17 24 -50 66l116 48l40 -53l65 37l37 -53l-65 -38q71 -107 103 -200q30 -90 30 -183q0 -148 -55 -221zM378 406q-45 12 -86 12q-58 0 -83 -33 q-28 -38 -28 -129q0 -168 105 -168q61 0 84 44q23 43 23 153q0 64 -15 121z" />
<glyph unicode="&#xf1;" horiz-adv-x="635" d="M525 715q-8 -78 -35 -111q-23 -28 -64 -28q-36 0 -66 18l-53 33q-14 9 -28 9q-31 0 -35 -54h-90q8 80 37 113q23 26 62 26q38 0 66 -18l53 -33q15 -9 28 -9q31 0 35 54h90zM522 486q54 -52 54 -126v-360h-146v312q0 41 -29 71q-29 29 -69 29t-69 -29q-29 -28 -30 -69 v-314h-147v521l147 20v-89q56 86 158 86q76 0 131 -52z" />
<glyph unicode="&#xf2;" horiz-adv-x="604" d="M246 582l-120 151h146l82 -140v-11h-108zM305 -4q-116 0 -187 75q-68 71 -68 178v43q0 103 67 175q72 77 185 77q116 0 188 -77q68 -72 68 -176v-43q0 -106 -68 -177q-71 -75 -185 -75zM197 237q0 -126 108 -126q106 0 106 126v65q0 127 -109 127q-105 0 -105 -127v-65z " />
<glyph unicode="&#xf3;" horiz-adv-x="604" d="M351 582h-107v11l81 140h147zM305 -4q-116 0 -187 75q-68 71 -68 178v43q0 103 67 175q72 77 185 77q116 0 188 -77q68 -72 68 -176v-43q0 -106 -68 -177q-71 -75 -185 -75zM197 237q0 -126 108 -126q106 0 106 126v65q0 127 -109 127q-105 0 -105 -127v-65z" />
<glyph unicode="&#xf4;" horiz-adv-x="606" d="M364 582l-61 109l-60 -109h-103v10l79 141h171l79 -141v-10h-105zM305 -4q-116 0 -187 75q-68 71 -68 178v43q0 103 67 175q72 77 185 77q116 0 188 -77q68 -72 68 -176v-43q0 -106 -68 -177q-71 -75 -185 -75zM197 237q0 -126 108 -126q106 0 106 126v65q0 127 -109 127 q-105 0 -105 -127v-65z" />
<glyph unicode="&#xf5;" horiz-adv-x="606" d="M486 715q-8 -78 -35 -111q-23 -28 -64 -28q-36 0 -66 18l-53 33q-14 9 -28 9q-31 0 -35 -54h-90q8 80 37 113q23 26 62 26q38 0 66 -18l53 -33q15 -9 28 -9q31 0 35 54h90zM305 -4q-116 0 -187 75q-68 71 -68 178v43q0 103 67 175q72 77 185 77q116 0 188 -77 q68 -72 68 -176v-43q0 -106 -68 -177q-71 -75 -185 -75zM197 237q0 -126 108 -126q106 0 106 126v65q0 127 -109 127q-105 0 -105 -127v-65z" />
<glyph unicode="&#xf6;" horiz-adv-x="606" d="M205 593q-61 0 -61 62t61 62t61 -62t-61 -62zM403 593q-61 0 -61 62t62 62q60 0 60 -62t-61 -62zM305 -4q-116 0 -187 75q-68 71 -68 178v43q0 103 67 175q72 77 185 77q116 0 188 -77q68 -72 68 -176v-43q0 -106 -68 -177q-71 -75 -185 -75zM197 237q0 -126 108 -126 q106 0 106 126v65q0 127 -109 127q-105 0 -105 -127v-65z" />
<glyph unicode="&#xf7;" horiz-adv-x="593" d="M547 244h-498v47h498v-47zM296 7q-77 0 -77 74q0 73 78 73t78 -73q0 -74 -79 -74zM296 378q-77 0 -77 75q0 73 78 73t78 -73q0 -75 -79 -75z" />
<glyph unicode="&#xf8;" horiz-adv-x="579" d="M445 486q81 -68 81 -173v-97q0 -95 -67 -161q-66 -65 -159 -65h-23q-62 0 -115 31l-58 -97h-44l72 118q-81 69 -81 175v96q0 95 67 161q66 65 158 65h24q59 0 114 -31l59 96h44zM173 223q0 -43 20 -80l165 273q-25 21 -58 21h-24q-43 0 -72 -36q-31 -40 -31 -103v-75z M404 298q0 51 -21 87l-164 -272q26 -21 58 -21h23q43 0 73 34q31 37 31 97v75z" />
<glyph unicode="&#xf9;" horiz-adv-x="654" d="M272 582l-120 151h146l82 -140v-11h-108zM139 52q-54 52 -54 126v360h146v-312q0 -41 29 -71q29 -29 69 -29t69 29q29 28 30 69v314h147v-535h-139l-8 83q-56 -86 -158 -86q-76 0 -131 52z" />
<glyph unicode="&#xfa;" horiz-adv-x="656" d="M372 582h-107v11l81 140h147zM139 52q-54 52 -54 126v360h146v-312q0 -41 29 -71q29 -29 69 -29t69 29q29 28 30 69v314h147v-538h-139l-8 86q-56 -86 -158 -86q-76 0 -131 52z" />
<glyph unicode="&#xfb;" horiz-adv-x="654" d="M385 582l-61 109l-60 -109h-103v10l79 141h171l79 -141v-10h-105zM139 52q-54 52 -54 126v360h146v-312q0 -41 29 -71q29 -29 69 -29t69 29q29 28 30 69v314h147v-535h-139l-8 83q-56 -86 -158 -86q-76 0 -131 52z" />
<glyph unicode="&#xfc;" horiz-adv-x="649" d="M234 593q-61 0 -61 62t61 62t61 -62t-61 -62zM432 593q-61 0 -61 62t62 62q60 0 60 -62t-61 -62zM139 52q-54 52 -54 126v360h146v-312q0 -41 29 -71q29 -29 69 -29t69 29q29 28 30 69v314h147v-535h-139l-8 83q-56 -86 -158 -86q-76 0 -131 52z" />
<glyph unicode="&#xfd;" horiz-adv-x="537" d="M323 582h-107v11l81 140h147zM277 158q0 4 3 31q5 34 9 50l66 234q14 48 20 66h152l-199 -603q-44 -130 -172 -130h-15l-21 2q-28 3 -57 13l11 122l25 -8l10 -2q17 -4 34 -4h12q28 1 52 76l-192 535h156l44 -142l47 -159q3 -9 6 -24z" />
<glyph unicode="&#xfe;" horiz-adv-x="589" d="M480 472q61 -66 61 -170v-87q0 -90 -33 -146q-41 -70 -129 -78q-7 -1 -14 -1q-15 0 -29 3q-14 4 -33 11l-14 7l-14 5q-13 4 -25 4h-5q-39 -3 -39 -46v-157l-121 -36v981l121 15v-297q18 24 45 39q34 18 77 18q92 0 152 -65zM420 323q0 107 -101 109h-2q-110 0 -110 -111 v-222q0 2 19 10q18 8 36 8h7q11 -1 25 -5l24 -9q23 -9 38 -9q4 0 8 1q33 5 46 34q10 21 10 60v134z" />
<glyph unicode="&#xff;" horiz-adv-x="531" d="M173 593q-61 0 -61 62t61 62t61 -62t-61 -62zM371 593q-61 0 -61 62t62 62q60 0 60 -62t-61 -62zM271 158q0 4 3 31q5 34 9 50l66 234q14 48 20 66h152l-199 -603q-44 -130 -172 -130h-15l-21 2q-28 3 -57 13l11 122l25 -8l10 -2q17 -4 34 -4h12q28 1 52 76l-192 535h156 l44 -142l47 -159q3 -9 6 -24z" />
<glyph unicode="&#x152;" horiz-adv-x="1007" d="M973 -1h-438v40q-69 -47 -160 -47h-27q-138 0 -216 101q-73 94 -73 243v77q0 149 72 243q78 101 217 101h28q90 0 159 -47v40h434v-116h-308v-148q0 -49 51 -49h220v-111h-235q-27 0 -33 -25l-3 -28v-157h298zM533 403q0 107 -39 170q-43 71 -128 71q-97 0 -139 -72 q-18 -31 -26 -76q-7 -41 -7 -93v-59q0 -102 37 -162q44 -71 134 -71t132 71q36 60 36 164v57z" />
<glyph unicode="&#x153;" horiz-adv-x="890" d="M622 214q-38 0 -62 -10q-30 -13 -30 -37q0 -35 45 -58q31 -15 68 -15q43 0 94 21t95 59l-4 -126q-65 -56 -155 -56h-69q-91 0 -147 64q-69 -64 -158 -64h-23q-93 0 -159 66q-67 66 -67 162v92q0 95 67 161q66 65 158 65h24q97 0 162 -68q62 68 154 68h32q86 0 144 -50 q59 -51 59 -131v-3q0 -140 -176 -140h-52zM403 297q0 65 -32 104q-29 36 -72 36h-24q-42 0 -72 -37q-31 -39 -31 -103v-71q0 -58 31 -96q30 -36 73 -36h23q43 0 73 35q31 37 31 97v71zM527 286q22 24 68 24h66q69 0 69 58q0 62 -71 62h-39q-44 0 -70 -31q-23 -27 -23 -67 v-46z" />
<glyph unicode="&#x178;" horiz-adv-x="642" d="M224 796q-58 0 -58 55q0 54 59 54t59 -54q0 -55 -60 -55zM418 796q-60 0 -60 55q0 54 60 54q58 0 58 -54q0 -55 -58 -55zM634 751q-12 -23 -28 -54l-147 -288l-46 -93q-18 -36 -18 -87v-229h-150v229q0 51 -18 87l-221 435h161l137 -288q4 -9 7 -20q8 -29 9 -64 q1 35 9 64q3 11 7 20l103 214l34 74h161z" />
<glyph unicode="&#x2c6;" d="M309 602l-61 109l-60 -109h-103v10l79 141h171l79 -141v-10h-105z" />
<glyph unicode="&#x2dc;" d="M435 735q-8 -78 -35 -111q-23 -28 -64 -28q-36 0 -66 18l-53 33q-14 9 -28 9q-31 0 -35 -54h-90q8 80 37 113q23 26 62 26q38 0 66 -18l53 -33q15 -9 28 -9q31 0 35 54h90z" />
<glyph unicode="&#x2000;" horiz-adv-x="479" />
<glyph unicode="&#x2001;" horiz-adv-x="958" />
<glyph unicode="&#x2002;" horiz-adv-x="479" />
<glyph unicode="&#x2003;" horiz-adv-x="958" />
<glyph unicode="&#x2004;" horiz-adv-x="319" />
<glyph unicode="&#x2005;" horiz-adv-x="239" />
<glyph unicode="&#x2006;" horiz-adv-x="159" />
<glyph unicode="&#x2007;" horiz-adv-x="159" />
<glyph unicode="&#x2008;" horiz-adv-x="119" />
<glyph unicode="&#x2009;" horiz-adv-x="191" />
<glyph unicode="&#x200a;" horiz-adv-x="53" />
<glyph unicode="&#x2010;" horiz-adv-x="250" d="M23 215v101h204v-101h-204z" />
<glyph unicode="&#x2011;" horiz-adv-x="250" d="M23 215v101h204v-101h-204z" />
<glyph unicode="&#x2012;" horiz-adv-x="250" d="M23 215v101h204v-101h-204z" />
<glyph unicode="&#x2013;" d="M32 215v101h436v-101h-436z" />
<glyph unicode="&#x2014;" horiz-adv-x="1000" d="M32 215v101h936v-101h-936z" />
<glyph unicode="&#x2018;" horiz-adv-x="244" d="M158 782l57 -74q-53 -26 -67 -42q-11 -12 -11 -39v-8h12q49 0 49 -51q0 -68 -81 -68q-88 0 -88 102q0 111 129 180z" />
<glyph unicode="&#x2019;" horiz-adv-x="244" d="M86 498l-57 74q53 26 67 42q11 12 11 39v8h-12q-49 0 -49 51q0 68 81 68q88 0 88 -102q0 -111 -129 -180z" />
<glyph unicode="&#x201a;" horiz-adv-x="244" d="M86 -143l-57 74q53 26 67 42q11 12 11 39v8h-12q-49 0 -49 51q0 68 81 68q88 0 88 -102q0 -111 -129 -180z" />
<glyph unicode="&#x201c;" horiz-adv-x="445" d="M359 780l57 -74q-53 -26 -67 -42q-11 -12 -11 -39v-8h12q49 0 49 -51q0 -68 -81 -68q-88 0 -88 102q0 111 129 180zM158 780l57 -74q-53 -26 -67 -42q-11 -12 -11 -39v-8h12q49 0 49 -51q0 -68 -81 -68q-88 0 -88 102q0 111 129 180z" />
<glyph unicode="&#x201d;" horiz-adv-x="446" d="M288 498l-57 74q53 26 67 42q11 12 11 39v8h-12q-49 0 -49 51q0 68 81 68q88 0 88 -102q0 -111 -129 -180zM86 498l-57 74q53 26 67 42q11 12 11 39v8h-12q-49 0 -49 51q0 68 81 68q88 0 88 -102q0 -111 -129 -180z" />
<glyph unicode="&#x201e;" horiz-adv-x="446" d="M86 -143l-57 74q53 26 67 42q11 12 11 39v8h-12q-49 0 -49 51q0 68 81 68q88 0 88 -102q0 -111 -129 -180zM288 -143l-57 74q53 26 67 42q11 12 11 39v8h-12q-49 0 -49 51q0 68 81 68q88 0 88 -102q0 -111 -129 -180z" />
<glyph unicode="&#x2022;" d="M118 133v263h264v-263h-264z" />
<glyph unicode="&#x2026;" horiz-adv-x="749" d="M374 -8q-77 0 -77 74q0 73 77 73q78 0 78 -73q0 -74 -78 -74zM606 -8q-77 0 -77 74q0 73 77 73q78 0 78 -73q0 -74 -78 -74zM142 -8q-77 0 -77 74q0 73 77 73q78 0 78 -73q0 -74 -78 -74z" />
<glyph unicode="&#x202f;" horiz-adv-x="191" />
<glyph unicode="&#x2039;" horiz-adv-x="325" d="M180 41l-143 231l143 231h108l-121 -231l121 -231h-108z" />
<glyph unicode="&#x203a;" horiz-adv-x="325" d="M145 41h-108l121 231l-121 231h108l143 -231z" />
<glyph unicode="&#x205f;" horiz-adv-x="239" />
<glyph unicode="&#x20ac;" horiz-adv-x="597" d="M565 35q-41 -21 -77 -32q-42 -13 -80 -13h-19q-111 0 -187 83q-72 77 -85 195h-57v60h54v88h-54v60h57q13 117 84 195q76 83 188 84h14q79 -3 152 -35l-41 -117q-63 34 -115 34h-7q-55 0 -96 -47q-38 -45 -49 -114h254l-16 -60h-241v-88h257l-16 -60h-239q8 -74 43 -115 q38 -45 103 -45h13q28 0 62 13q28 10 58 28z" />
<glyph unicode="&#x2122;" horiz-adv-x="831" d="M232 731h81v-65h-87q-7 0 -11 -2q-2 -1 -3 -3l-1 -6v-301h-74v306l-3 3q-3 3 -14 3h-79l-1 65h82l23 -2q17 -2 30 -9q23 11 57 11zM769 731v-377h-75v277l-3 -28l-78 -228h-64l-77 226l-3 29v-276h-74v377h101l85 -264l86 264h102z" />
</font>
</defs>
</svg>
